NOWE POSTY | NOWE TEMATY | POPULARNE | STAT | RSS | KONTAKT | REJESTRACJA | Login: Hasło: rss dla

HOME » SOUNDTRUCKI I INNE » ANETA TODORCZUK -PERCHUĆ - PROJEKT KOFFTA (2016) [MP3]

Przejdz do dołu stronyStrona: 1 / 1    strony: [1]

Aneta Todorczuk -Perchuć - Projekt kOFFta (2016) [MP3]

albumy / składanki
  
owsiak79
02.08.2017 21:31:37
poziom najwyższy i najjaśniejszy :-)



Grupa: Użytkownik

Posty: 6235 #2449018
Od: 2015-2-25
Obrazek
Aneta Todorczuk -Perchuć - Projekt kOFFta (2016) [MP3]
Obrazek
Obrazek
Analyzed: Aneta Todorczuk-Perchuc / Projekt kOFFta
--------------------------------------------------------------------------------

DR Peak RMS Duration Track
--------------------------------------------------------------------------------
DR6 0.00 dB -8.77 dB 4:43 01-Stop klatka
DR4 0.00 dB -6.04 dB 3:48 02-Zyleta
DR5 0.00 dB -7.12 dB 4:09 03-Zawsze warto
DR7 0.00 dB -9.60 dB 4:45 04-Jej portret
DR6 0.00 dB -9.12 dB 4:23 05-Z tobą chcę oglądać świat
DR6 0.00 dB -9.42 dB 5:28 06-Do łezki łezka
DR7 0.00 dB -9.69 dB 2:36 07-Ada
DR4 0.00 dB -6.74 dB 4:00 08-Brat
DR6 0.00 dB -8.69 dB 5:01 09-Samba przed rozstaniem
DR7 0.00 dB -9.47 dB 5:59 10-Czy to wszystko ma sens
DR6 0.00 dB -7.67 dB 2:58 11-Zanika płeć
DR5 0.00 dB -6.96 dB 2:57 12-Mozart. 40 Symfonia
Obrazek
Obrazek lub Obrazek
aby pobrać film wystarczy kliknąć w którąś ikonke
następnie
"pobierz za darmo"wpisać kod z obrazka oraz potwierdzić
  
Electra15.12.2017 07:16:12
poziom 5

oczka

Przejdz do góry stronyStrona: 1 / 1    strony: [1]

  << Pierwsza      < Poprzednia      Następna >     Ostatnia >>  

HOME » SOUNDTRUCKI I INNE » ANETA TODORCZUK -PERCHUĆ - PROJEKT KOFFTA (2016) [MP3]

Aby pisac na forum musisz sie zalogować !!!

randki | własny sklep internetowy | promocje | darmowe aliasy | CyberCiekawostki | darmowe forum | sklepy
opinie, testy, oceny | katalog stron | toplsta