NOWE POSTY | NOWE TEMATY | POPULARNE | STAT | RSS | KONTAKT | REJESTRACJA | Login: Hasło: rss dla

HOME » SOUNDTRUCKI I INNE » BLUE CAFE - FRESHAIR (2014) [FLAC]

Przejdz do dołu stronyStrona: 1 / 1    strony: [1]

Blue Cafe - Freshair (2014) [FLAC]

albumy / składanki
  
owsiak79
03.08.2017 09:29:32
poziom najwyższy i najjaśniejszy :-)



Grupa: Użytkownik

Posty: 5862 #2449128
Od: 2015-2-25
Obrazek
Blue Cafe - Freshair (2014) [FLAC]
Obrazek
Obrazek
Analyzed: Blue Cafe / Freshair
--------------------------------------------------------------------------------

DR Peak RMS Duration Track
--------------------------------------------------------------------------------
DR6 -0.10 dB -8.32 dB 4:11 01-Freshair
DR6 -0.10 dB -6.59 dB 3:44 02-Waiting for Love
DR6 -0.10 dB -8.20 dB 3:57 03-Zapamiętaj
DR5 -0.10 dB -6.95 dB 4:12 04-Feniks
DR5 -0.10 dB -7.22 dB 4:02 05-To Ty
DR6 -0.10 dB -7.51 dB 3:20 06-Dokąd chce
DR6 -0.10 dB -8.05 dB 3:53 07-Znam to na pamięć
DR4 -0.10 dB -6.10 dB 4:03 08-Get high
DR6 -0.10 dB -7.41 dB 4:29 09-Still the same
DR9 -0.10 dB -11.48 dB 5:35 10-Cat
Obrazek
Obrazek lub Obrazek
aby pobrać film wystarczy kliknąć w którąś ikonke
następnie
"pobierz za darmo"wpisać kod z obrazka oraz potwierdzić
  
Electra18.10.2017 00:32:58
poziom 5

oczka

Przejdz do góry stronyStrona: 1 / 1    strony: [1]

  << Pierwsza      < Poprzednia      Następna >     Ostatnia >>  

HOME » SOUNDTRUCKI I INNE » BLUE CAFE - FRESHAIR (2014) [FLAC]

Aby pisac na forum musisz sie zalogować !!!

randki | własny sklep internetowy | promocje | darmowe aliasy | CyberCiekawostki | darmowe forum | sklepy
opinie, testy, oceny | katalog stron | toplsta