NOWE POSTY | NOWE TEMATY | POPULARNE | STAT | RSS | KONTAKT | REJESTRACJA | Login: Hasło: rss dla

HOME » SOUNDTRUCKI I INNE » ANNA JANTAR - NIC NIE MOZE WIECZNIE TRWAC (1991) [FLAC]

Przejdz do dołu stronyStrona: 1 / 1    strony: [1]

Anna Jantar - Nic nie moze wiecznie trwac (1991) [FLAC]

albumy / składanki
  
owsiak79
02.08.2017 21:34:16
poziom najwyższy i najjaśniejszy :-)



Grupa: Użytkownik

Posty: 5566 #2449020
Od: 2015-2-25

Anna Jantar - Nic nie moze wiecznie trwac (1991) [FLAC]


Analyzed: Anna Jantar / Nic nie może wiecznie trwać
--------------------------------------------------------------------------------

DR Peak RMS Duration Track
--------------------------------------------------------------------------------
DR12 -0.68 dB -13.97 dB 3:00 01-Najtrudniejszy pierwszy krok
DR13 -0.11 dB -14.88 dB 2:52 02-Co ja w Tobie widziałam?
DR11 -1.63 dB -15.66 dB 3:05 03-Tyle słonća w całym mieście
DR10 0.00 dB -13.78 dB 3:31 04-Staruszek swiat
DR10 -0.06 dB -14.19 dB 3:38 05-Biały wiersz od Ciebie
DR11 -1.28 dB -14.48 dB 2:56 06-Żeby szczęśliwym być
DR11 -0.33 dB -14.90 dB 3:02 07-Pozwolił nam los
DR12 0.00 dB -14.22 dB 3:07 08-Za każdy uśmiech
DR12 -0.50 dB -14.60 dB 3:02 09-Mój, tylko mój
DR12 -2.96 dB -16.85 dB 3:38 10-Moje jedyne marzenie
DR13 -0.67 dB -17.60 dB 4:01 11-Radość najpiękniejszych lat
DR11 -4.75 dB -17.88 dB 3:25 12-Ja nie mogłam mieć serc dwóch
DR11 -2.45 dB -17.71 dB 4:26 13-Nie wierz mi, nie ufaj mi
DR13 0.00 dB -14.39 dB 3:04 14-Zawsze gdzieś czeka ktoś
DR11 0.00 dB -14.03 dB 2:36 15-Dzień bez happy endu
DR12 -3.06 dB -17.96 dB 3:02 16-Jak w taki dzień deszczowy
DR12 -1.71 dB -15.26 dB 3:18 17-Gdzie są dzisiaj tamci ludzie?
DR13 -0.43 dB -16.95 dB 4:58 18-Tylko mnie poproś do tańca
DR12 0.00 dB -14.16 dB 3:33 19-Wielka dama tańczy sama
DR10 -0.10 dB -12.38 dB 3:56 20-Nic nie może wiecznie trwać

lub
aby pobrać film wystarczy kliknąć w którąś ikonke
następnie
"pobierz za darmo"wpisać kod z obrazka oraz potwierdzić
  
Electra20.08.2017 17:37:30
poziom 5

oczka

Przejdz do góry stronyStrona: 1 / 1    strony: [1]

  << Pierwsza      < Poprzednia      Następna >     Ostatnia >>  

HOME » SOUNDTRUCKI I INNE » ANNA JANTAR - NIC NIE MOZE WIECZNIE TRWAC (1991) [FLAC]

Aby pisac na forum musisz sie zalogować !!!

randki | własny sklep internetowy | promocje | darmowe aliasy | CyberCiekawostki | darmowe forum | sklepy
opinie, testy, oceny | katalog stron | toplsta