NOWE POSTY | NOWE TEMATY | POPULARNE | STAT | RSS | KONTAKT | REJESTRACJA | Login: Hasło: rss dla

HOME » SOUNDTRUCKI I INNE » BAYER FULL - ZŁOTE PRZEBOJE (1995) [FLAC]

Przejdz do dołu stronyStrona: 1 / 1    strony: [1]

Bayer Full - Złote Przeboje (1995) [FLAC]

albumy / składanki
  
owsiak79
03.08.2017 06:24:07
poziom najwyższy i najjaśniejszy :-)



Grupa: Użytkownik

Posty: 5862 #2449065
Od: 2015-2-25
Obrazek
Bayer Full - Złote Przeboje (1995) [FLAC]
Obrazek
Obrazek
Analyzed: Bayer Full / Złote przeboje
--------------------------------------------------------------------------------

DR Peak RMS Duration Track
--------------------------------------------------------------------------------
DR9 -0.19 dB -10.69 dB 3:10 01-Prezydent
DR9 -0.52 dB -11.17 dB 2:45 02-Szariko mariko
DR10 -0.10 dB -10.84 dB 2:38 03-Blondyneczka
DR9 -0.26 dB -11.10 dB 2:28 04-Nocka
DR10 -0.41 dB -11.74 dB 3:18 05-Jaworzyna
DR10 -0.59 dB -11.60 dB 3:01 06-Czekaj mnie dziewczyno
DR11 -0.10 dB -12.65 dB 4:02 07-Koniczynka
DR10 -0.59 dB -11.49 dB 3:22 08-Powrócisz znów
DR11 -0.10 dB -11.91 dB 3:15 09-Kolorowe oczy
DR11 -0.65 dB -12.71 dB 3:06 10-Oczekiwanie
DR10 -0.58 dB -11.96 dB 3:05 11-Pada snieg
DR12 -0.16 dB -14.17 dB 3:30 12-Wspaniała matko
DR10 -0.41 dB -11.60 dB 3:25 13-Nie odchodz
DR11 -0.24 dB -11.89 dB 2:32 14-Szatynka
DR9 -1.26 dB -11.45 dB 4:30 15-Bosman
DR9 -0.40 dB -11.37 dB 3:55 16-Nie żałuj
DR9 -0.69 dB -10.83 dB 2:36 17-Polski duch
DR11 -0.31 dB -12.90 dB 5:16 18-Moja muzyka
DR10 -0.76 dB -11.46 dB 3:50 19-Złotowłosa Anna
Obrazek
Obrazek lub Obrazek
aby pobrać film wystarczy kliknąć w którąś ikonke
następnie
"pobierz za darmo"wpisać kod z obrazka oraz potwierdzić
  
Electra17.10.2017 14:59:44
poziom 5

oczka

Przejdz do góry stronyStrona: 1 / 1    strony: [1]

  << Pierwsza      < Poprzednia      Następna >     Ostatnia >>  

HOME » SOUNDTRUCKI I INNE » BAYER FULL - ZŁOTE PRZEBOJE (1995) [FLAC]

Aby pisac na forum musisz sie zalogować !!!

randki | własny sklep internetowy | promocje | darmowe aliasy | CyberCiekawostki | darmowe forum | sklepy
opinie, testy, oceny | katalog stron | toplsta