NOWE POSTY | NOWE TEMATY | POPULARNE | STAT | RSS | KONTAKT | REJESTRACJA | Login: Hasło: rss dla

HOME » SOUNDTRUCKI I INNE » BOYS - ŁOBUZ & DRAŃ (1996) [FLAC]

Przejdz do dołu stronyStrona: 1 / 1    strony: [1]

Boys - Łobuz & Drań (1996) [FLAC]

albumy / składanki
  
owsiak79
03.08.2017 09:31:55
poziom najwyższy i najjaśniejszy :-)



Grupa: Użytkownik

Posty: 6235 #2449129
Od: 2015-2-25
Obrazek
Boys - Łobuz & Drań (1996) [FLAC]
Obrazek
Obrazek
Analyzed: Boys & Classic / Łobuz & Drań (1)
Boys / Łobuz & Drań (2-16)
--------------------------------------------------------------------------------

DR Peak RMS Duration Track
--------------------------------------------------------------------------------
DR10 -0.20 dB -12.52 dB 5:27 16-Wszystko jest w nas
DR13 -0.20 dB -14.39 dB 3:51 01-Wolność
DR13 -0.20 dB -14.03 dB 4:36 02-Bawmy się
DR8 -0.20 dB -9.21 dB 3:59 03-Łobuz
DR10 -0.20 dB -10.85 dB 4:02 04-Twe oczy
DR9 -0.20 dB -10.39 dB 4:04 05-Ty i ja
DR9 -0.20 dB -10.07 dB 3:51 06-Drań
DR14 -0.20 dB -15.97 dB 3:46 07-Planeta miłości
DR9 -0.20 dB -10.64 dB 4:13 08-Och,Daniel
DR10 -0.20 dB -10.78 dB 3:53 09-Kochaj mnie
DR14 -0.20 dB -15.71 dB 3:05 10-To nie U.S.A.
DR9 -0.20 dB -11.35 dB 4:08 11-Wspomnienie
DR8 -0.20 dB -9.09 dB 3:21 12-Agnieszka
DR9 -0.20 dB -10.64 dB 3:28 13-Kochana uwierz mi
DR13 -0.20 dB -14.83 dB 3:57 14-Anulka
DR8 -0.20 dB -9.31 dB 4:04 15-Gdzie moja wolność
Obrazek
Obrazek lub Obrazek
aby pobrać film wystarczy kliknąć w którąś ikonke
następnie
"pobierz za darmo"wpisać kod z obrazka oraz potwierdzić
  
Electra15.12.2017 18:52:07
poziom 5

oczka

Przejdz do góry stronyStrona: 1 / 1    strony: [1]

  << Pierwsza      < Poprzednia      Następna >     Ostatnia >>  

HOME » SOUNDTRUCKI I INNE » BOYS - ŁOBUZ & DRAŃ (1996) [FLAC]

Aby pisac na forum musisz sie zalogować !!!

randki | własny sklep internetowy | promocje | darmowe aliasy | CyberCiekawostki | darmowe forum | sklepy
opinie, testy, oceny | katalog stron | toplsta