NOWE POSTY | NOWE TEMATY | POPULARNE | STAT | RSS | KONTAKT | REJESTRACJA | Login: Hasło: rss dla

HOME » SOUNDTRUCKI I INNE » BRACIA FIGO FAGOT - DISCO POLO (2016) [MP3]

Przejdz do dołu stronyStrona: 1 / 1    strony: [1]

Bracia Figo Fagot - Disco Polo (2016) [MP3]

albumy / składanki
  
owsiak79
03.08.2017 09:37:40
poziom najwyższy i najjaśniejszy :-)



Grupa: Użytkownik

Posty: 5566 #2449132
Od: 2015-2-25

Bracia Figo Fagot - Disco Polo (2016) [MP3]


Analyzed: Bracia Figo Fagot / Disco Polo
--------------------------------------------------------------------------------

DR Peak RMS Duration Track
--------------------------------------------------------------------------------
DR6 0.00 dB -7.05 dB 3:22 01-Polska
DR8 0.00 dB -9.21 dB 3:54 02-Najebany to do domu
DR7 0.00 dB -7.66 dB 2:59 03-Dziewczyno zawistna
DR7 0.00 dB -8.71 dB 3:34 04-Tańczyła z bratem
DR7 0.00 dB -8.22 dB 3:01 05-Lato i morze
DR7 0.00 dB -8.10 dB 3:25 06-Ajem USA
DR8 0.00 dB -8.86 dB 3:39 07-A w niebie gra disco polo
DR7 0.00 dB -8.37 dB 3:45 08-Mętne oczy
DR9 0.00 dB -9.49 dB 3:49 09-Miłość, miłość, miłość
DR5 0.00 dB -6.31 dB 3:31 10-Disco polo dalej gra
DR6 0.00 dB -7.06 dB 3:54 11-Co się wczoraj odjebało?
DR7 0.00 dB -7.60 dB 3:27 12-Polska (wersja Alternatywna)
DR11 0.00 dB -12.42 dB 3:50 13-Albatros dalej gra

lub
aby pobrać film wystarczy kliknąć w którąś ikonke
następnie
"pobierz za darmo"wpisać kod z obrazka oraz potwierdzić
  
Electra20.08.2017 17:36:03
poziom 5

oczka

Przejdz do góry stronyStrona: 1 / 1    strony: [1]

  << Pierwsza      < Poprzednia      Następna >     Ostatnia >>  

HOME » SOUNDTRUCKI I INNE » BRACIA FIGO FAGOT - DISCO POLO (2016) [MP3]

Aby pisac na forum musisz sie zalogować !!!

randki | własny sklep internetowy | promocje | darmowe aliasy | CyberCiekawostki | darmowe forum | sklepy
opinie, testy, oceny | katalog stron | toplsta