NOWE POSTY | NOWE TEMATY | POPULARNE | STAT | RSS | KONTAKT | REJESTRACJA | Login: Hasło: rss dla

HOME » SOUNDTRUCKI I INNE » EDYTA GÓRNIAK - DOTYK (1999) [ FLAC]

Przejdz do dołu stronyStrona: 1 / 1    strony: [1]

Edyta Górniak - Dotyk (1999) [ FLAC]

albumy / składanki
  
owsiak79
03.08.2017 11:27:42
poziom najwyższy i najjaśniejszy :-)



Grupa: Użytkownik

Posty: 5566 #2449154
Od: 2015-2-25

Edyta Górniak - Dotyk (1999) [ FLAC]


DR9 -0.10 dB -10.23 dB 4:13 01-Jestem Kobietą
DR11 0.00 dB -14.59 dB 4:28 02-Będę Śniła
DR10 -0.10 dB -11.89 dB 4:28 03-Dotyk
DR11 -0.10 dB -16.00 dB 5:09 04-Szyby
DR9 -0.11 dB -11.59 dB 5:13 05-Niebo To My
DR12 -0.95 dB -18.69 dB 4:32 06-Nie Opuszczaj Mnie
DR9 -0.10 dB -12.20 dB 4:22 07-Litania
DR12 -0.14 dB -16.40 dB 5:30 08-Kasztany
DR10 -0.10 dB -12.76 dB 4:17 09-Pada Śnieg
DR8 -0.10 dB -10.49 dB 3:04 10-To Nie Ja
DR14 -0.25 dB -19.90 dB 5:00 11-Jej Portret

lub
aby pobrać film wystarczy kliknąć w którąś ikonke
następnie
"pobierz za darmo"wpisać kod z obrazka oraz potwierdzić
  
Electra20.08.2017 17:35:22
poziom 5

oczka

Przejdz do góry stronyStrona: 1 / 1    strony: [1]

  << Pierwsza      < Poprzednia      Następna >     Ostatnia >>  

HOME » SOUNDTRUCKI I INNE » EDYTA GÓRNIAK - DOTYK (1999) [ FLAC]

Aby pisac na forum musisz sie zalogować !!!

randki | własny sklep internetowy | promocje | darmowe aliasy | CyberCiekawostki | darmowe forum | sklepy
opinie, testy, oceny | katalog stron | toplsta