NOWE POSTY | NOWE TEMATY | POPULARNE | STAT | RSS | KONTAKT | REJESTRACJA | Login: Hasło: rss dla

HOME » SOUNDTRUCKI I INNE » KARRAMBA - VATOS LOCOS KLAN (REEDYCJA) (2017) [MP3]

Przejdz do dołu stronyStrona: 1 / 1    strony: [1]

Karramba - Vatos Locos Klan (Reedycja) (2017) [MP3]

albumy / składanki
  
owsiak79
03.08.2017 11:32:24
poziom najwyższy i najjaśniejszy :-)



Grupa: Użytkownik

Posty: 6235 #2449158
Od: 2015-2-25
Obrazek
Karramba - Vatos Locos Klan (Reedycja) (2017) [MP3]
Obrazek
Obrazek
DR Peak RMS Duration Track
--------------------------------------------------------------------------------
DR8 0.00 dB -9.65 dB 3:54 03-Po pierwsze
DR8 0.00 dB -8.99 dB 4:15 19-Ile kosztujesz?
DR8 0.00 dB -9.41 dB 4:45 18-Zero sciemy
DR8 0.00 dB -8.86 dB 4:54 04-Cala Polska w temacie
DR7 0.00 dB -8.15 dB 3:22 24-Booh! Booh!
DR11 0.00 dB -12.07 dB 4:25 20-Nowy Jork płonie
DR7 0.00 dB -8.21 dB 5:26 10-Czarna lista
DR7 0.00 dB -9.43 dB 1:31 01-Intro
DR9 0.00 dB -10.33 dB 4:19 02-V
DR21 0.00 dB -25.11 dB 0:45 05-Jednaściecha
DR6 0.00 dB -7.14 dB 5:02 06-Vatos locos klan
DR8 0.00 dB -9.57 dB 4:02 07-Pocaluj mnie w dupę!
DR9 0.00 dB -10.12 dB 3:15 08-Nie dla Was, leszcze!!
DR11 -2.02 dB -12.71 dB 0:08 09-Ty kurwo, frajerze!!!
DR18 -0.55 dB -23.12 dB 0:44 11-Dwieściechy
DR10 0.00 dB -11.17 dB 4:55 12-Mój wlasny raj
DR9 0.00 dB -10.48 dB 4:11 13-Dzieci gorszego boga
DR13 0.00 dB -17.04 dB 1:08 14-Trzyściechy
DR11 0.00 dB -12.43 dB 0:40 15-Konfident
DR6 0.00 dB -6.09 dB 2:45 16-W imie zasad!
DR8 0.00 dB -10.73 dB 0:27 17-Za texty&
DR13 0.00 dB -15.87 dB 1:00 21-Ja tez Cie kocham!
DR8 0.00 dB -9.20 dB 4:05 22-Twoj wlasny raj
DR7 0.00 dB -9.94 dB 4:00 23-Czteryściechy
Obrazek
Obrazek lub Obrazek
aby pobrać film wystarczy kliknąć w którąś ikonke
następnie
"pobierz za darmo"wpisać kod z obrazka oraz potwierdzić
  
Electra15.12.2017 18:52:20
poziom 5

oczka

Przejdz do góry stronyStrona: 1 / 1    strony: [1]

  << Pierwsza      < Poprzednia      Następna >     Ostatnia >>  

HOME » SOUNDTRUCKI I INNE » KARRAMBA - VATOS LOCOS KLAN (REEDYCJA) (2017) [MP3]

Aby pisac na forum musisz sie zalogować !!!

randki | własny sklep internetowy | promocje | darmowe aliasy | CyberCiekawostki | darmowe forum | sklepy
opinie, testy, oceny | katalog stron | toplsta