NOWE POSTY | NOWE TEMATY | POPULARNE | STAT | RSS | KONTAKT | REJESTRACJA | Login: Hasło: rss dla

HOME » SOUNDTRUCKI I INNE » KASIA STANKIEWICZ - MIMIKRA (EDYCJA SPECJALNA) (2008) [MP3]

Przejdz do dołu stronyStrona: 1 / 1    strony: [1]

Kasia Stankiewicz - Mimikra (Edycja Specjalna) (2008) [MP3]

albumy / składanki
  
owsiak79
03.08.2017 11:35:27
poziom najwyższy i najjaśniejszy :-)



Grupa: Użytkownik

Posty: 5862 #2449161
Od: 2015-2-25
Obrazek
Kasia Stankiewicz - Mimikra (Edycja Specjalna) (2008) [MP3]
Obrazek
Obrazek
DR Peak RMS Duration Track
--------------------------------------------------------------------------------
DR7 0.00 dB -8.83 dB 4:08 01-W środku myśli
DR8 0.00 dB -9.50 dB 5:01 02-To taki bezbolesny kres
DR9 0.00 dB -11.03 dB 4:30 03-Marzec
DR7 0.00 dB -8.48 dB 4:37 04-4 ręce
DR7 0.00 dB -8.03 dB 3:58 05-Niezwykła samotnośc
DR6 0.00 dB -8.89 dB 5:21 06-Mokre Ulice
DR9 0.00 dB -11.47 dB 4:26 07-Jedno zdjęcie z archiwum pamięci
DR8 0.00 dB -9.72 dB 5:04 08-Zółte słonie
DR7 0.00 dB -8.45 dB 3:43 09-Dziwne zwyczaje
DR8 0.00 dB -10.72 dB 3:25 10-Dla Frycka
DR6 0.00 dB -6.39 dB 3:00 11-Night Club
DR6 0.00 dB -6.76 dB 3:31 12-RUN
DR7 0.00 dB -9.35 dB 5:07 13-Baby w meksyku
Obrazek
Obrazek lub Obrazek
aby pobrać film wystarczy kliknąć w którąś ikonke
następnie
"pobierz za darmo"wpisać kod z obrazka oraz potwierdzić
  
Electra18.10.2017 00:29:59
poziom 5

oczka

Przejdz do góry stronyStrona: 1 / 1    strony: [1]

  << Pierwsza      < Poprzednia      Następna >     Ostatnia >>  

HOME » SOUNDTRUCKI I INNE » KASIA STANKIEWICZ - MIMIKRA (EDYCJA SPECJALNA) (2008) [MP3]

Aby pisac na forum musisz sie zalogować !!!

randki | własny sklep internetowy | promocje | darmowe aliasy | CyberCiekawostki | darmowe forum | sklepy
opinie, testy, oceny | katalog stron | toplsta