NOWE POSTY | NOWE TEMATY | POPULARNE | STAT | RSS | KONTAKT | REJESTRACJA | Login: Hasło: rss dla

HOME » SOUNDTRUCKI I INNE » KRZYSZTOF KRAWCZYK - BYŁAŚ MI NADZIEJĄ (LP) (1974) [MP3]

Przejdz do dołu stronyStrona: 1 / 1    strony: [1]

Krzysztof Krawczyk - Byłaś mi nadzieją (LP) (1974) [MP3]

albumy / składanki
  
owsiak79
08.08.2017 11:45:08
poziom najwyższy i najjaśniejszy :-)



Grupa: Użytkownik

Posty: 6241 #2450600
Od: 2015-2-25
Obrazek
Krzysztof Krawczyk - Byłaś mi nadzieją (LP) (1974) [MP3]
Obrazek
Obrazek
Analyzed: Krzysztof Krawczyk / Byłaś mi nadzieją
--------------------------------------------------------------------------------

DR Peak RMS Duration Track
--------------------------------------------------------------------------------
DR10 0.00 dB -12.75 dB 3:06 01-Hallo, co o tym wiesz
DR9 -0.95 dB -12.30 dB 3:10 02-Nie żałuj róż, gdy płonie las
DR9 -0.83 dB -13.15 dB 3:39 03-Byłaś mi nadzieją
DR10 -0.55 dB -12.57 dB 2:54 04-Hej Barbara
DR10 -1.37 dB -13.26 dB 3:55 05-Każdym świtem umiera nasze wczoraj
DR8 -2.67 dB -12.62 dB 2:26 06-Zapamiętaj, że sen to ja
DR9 -0.06 dB -12.92 dB 3:58 07-Tysiąc pięknych dziewcząt
DR10 -2.40 dB -14.44 dB 2:26 08-Jeszcze zakochani
DR10 0.00 dB -12.41 dB 2:47 09-Ten dzień
DR10 -1.50 dB -13.73 dB 3:27 10-Będzie tak jak jest
DR9 -1.62 dB -12.95 dB 3:09 11-Hej dziewczyno, powiedz mi
DR9 -1.15 dB -12.57 dB 3:57 12-Nim zgaśnie dzień
Obrazek
Obrazek lub Obrazek
aby pobrać film wystarczy kliknąć w którąś ikonke
następnie
"pobierz za darmo"wpisać kod z obrazka oraz potwierdzić
  
Electra17.12.2017 15:02:49
poziom 5

oczka

Przejdz do góry stronyStrona: 1 / 1    strony: [1]

  << Pierwsza      < Poprzednia      Następna >     Ostatnia >>  

HOME » SOUNDTRUCKI I INNE » KRZYSZTOF KRAWCZYK - BYŁAŚ MI NADZIEJĄ (LP) (1974) [MP3]

Aby pisac na forum musisz sie zalogować !!!

randki | własny sklep internetowy | promocje | darmowe aliasy | CyberCiekawostki | darmowe forum | sklepy
opinie, testy, oceny | katalog stron | toplsta