NOWE POSTY | NOWE TEMATY | POPULARNE | STAT | RSS | KONTAKT | REJESTRACJA | Login: Hasło: rss dla

HOME » SOUNDTRUCKI I INNE » KRZYSZTOF MYSZKOWSKI - NOWA PRZESZŁOŚĆ (2016) [MP3]

Przejdz do dołu stronyStrona: 1 / 1    strony: [1]

Krzysztof Myszkowski - Nowa Przeszłość (2016) [MP3]

albumy / składanki
  
owsiak79
08.08.2017 11:47:00
poziom najwyższy i najjaśniejszy :-)



Grupa: Użytkownik

Posty: 6235 #2450601
Od: 2015-2-25
Obrazek
Krzysztof Myszkowski - Nowa Przeszłość (2016) [MP3]
Obrazek
Obrazek
Analyzed: Krzysztof Myszkowski / Nowa Przeszlosc
--------------------------------------------------------------------------------

DR Peak RMS Duration Track
--------------------------------------------------------------------------------
DR10 0.00 dB -13.15 dB 4:01 01-Lekcja historii
DR10 0.00 dB -13.16 dB 3:56 02-Znak
DR12 -0.15 dB -14.94 dB 3:29 03-Rozdrażnienie
DR11 -0.18 dB -13.04 dB 3:21 04-Radość życia
DR10 0.00 dB -11.93 dB 1:56 05-Naturalny proces rozwoju
DR11 -0.18 dB -13.69 dB 4:14 06-Czterdziestoletnie dzieci
DR12 0.00 dB -13.79 dB 2:41 07-Oświadczyny
DR10 -0.12 dB -12.46 dB 2:16 08-Studiując zen
DR11 -0.34 dB -13.87 dB 4:07 09-Spoiwo życia
DR11 -0.15 dB -13.03 dB 3:15 10-Jeszcze o pisaniu
DR10 0.00 dB -13.77 dB 6:58 11-Żydowski Poeta
DR12 -0.08 dB -14.42 dB 3:29 12-Nowa Przeszłość
DR11 -0.08 dB -13.58 dB 2:56 13-Nad rzeką życia
DR13 -0.12 dB -15.45 dB 4:03 14-Najtrudniej
Obrazek
Obrazek lub Obrazek
aby pobrać film wystarczy kliknąć w którąś ikonke
następnie
"pobierz za darmo"wpisać kod z obrazka oraz potwierdzić
  
Electra15.12.2017 07:15:43
poziom 5

oczka

Przejdz do góry stronyStrona: 1 / 1    strony: [1]

  << Pierwsza      < Poprzednia      Następna >     Ostatnia >>  

HOME » SOUNDTRUCKI I INNE » KRZYSZTOF MYSZKOWSKI - NOWA PRZESZŁOŚĆ (2016) [MP3]

Aby pisac na forum musisz sie zalogować !!!

randki | własny sklep internetowy | promocje | darmowe aliasy | CyberCiekawostki | darmowe forum | sklepy
opinie, testy, oceny | katalog stron | toplsta