NOWE POSTY | NOWE TEMATY | POPULARNE | STAT | RSS | KONTAKT | REJESTRACJA | Login: Hasło: rss dla

HOME » SOUNDTRUCKI I INNE » KUKIZ & HAK - MAŁA DZIEWCZYNKA (1993) [FLAC]

Przejdz do dołu stronyStrona: 1 / 1    strony: [1]

Kukiz & Hak - Mała Dziewczynka (1993) [FLAC]

albumy / składanki
  
owsiak79
08.08.2017 11:48:58
poziom najwyższy i najjaśniejszy :-)



Grupa: Użytkownik

Posty: 6241 #2450603
Od: 2015-2-25
Obrazek
Kukiz & Hak - Mała Dziewczynka (1993) [FLAC]
Obrazek
Obrazek
Analyzed: Kukiz i Hak / Mala Dziewczynka
--------------------------------------------------------------------------------

DR Peak RMS Duration Track
--------------------------------------------------------------------------------
DR12 -1.39 dB -15.35 dB 2:49 01-Ideały
DR11 -1.45 dB -13.71 dB 4:17 02-Śpiew Radosnego Ptaka Drągo
DR12 -1.04 dB -14.76 dB 2:46 03-12 Sekund
DR13 -1.01 dB -15.01 dB 4:34 04-Ołowiane Glowy
DR13 -1.45 dB -17.59 dB 5:03 05-Słownik Wyrazow Obcych
DR12 -0.99 dB -15.07 dB 3:54 06-Mózgi
DR13 -0.95 dB -15.90 dB 3:19 07-Bezzębna Potega
DR12 -1.12 dB -14.79 dB 2:51 08-Lot
DR14 -1.19 dB -16.56 dB 3:58 09-Mała Dziewczynka
DR14 -1.31 dB -17.36 dB 5:11 10-Nothing To Declare
Obrazek
Obrazek lub Obrazek
aby pobrać film wystarczy kliknąć w którąś ikonke
następnie
"pobierz za darmo"wpisać kod z obrazka oraz potwierdzić
  
Electra17.12.2017 15:02:20
poziom 5

oczka

Przejdz do góry stronyStrona: 1 / 1    strony: [1]

  << Pierwsza      < Poprzednia      Następna >     Ostatnia >>  

HOME » SOUNDTRUCKI I INNE » KUKIZ & HAK - MAŁA DZIEWCZYNKA (1993) [FLAC]

Aby pisac na forum musisz sie zalogować !!!

randki | własny sklep internetowy | promocje | darmowe aliasy | CyberCiekawostki | darmowe forum | sklepy
opinie, testy, oceny | katalog stron | toplsta