NOWE POSTY | NOWE TEMATY | POPULARNE | STAT | RSS | KONTAKT | REJESTRACJA | Login: Hasło: rss dla

HOME » SOUNDTRUCKI I INNE » LANBERRY - LANBERRY (DELUXE EDITION) (2017) [MP3]

Przejdz do dołu stronyStrona: 1 / 1    strony: [1]

Lanberry - Lanberry (Deluxe Edition) (2017) [MP3]

albumy / składanki
  
owsiak79
08.08.2017 11:50:59
poziom najwyższy i najjaśniejszy :-)



Grupa: Użytkownik

Posty: 5862 #2450604
Od: 2015-2-25
Obrazek
Lanberry - Lanberry (Deluxe Edition) (2017) [MP3]
Obrazek
Obrazek
Analyzed: Lanberry / Lanberry
--------------------------------------------------------------------------------

DR Peak RMS Duration Track
--------------------------------------------------------------------------------
DR4 0.00 dB -6.96 dB 3:30 01-Zagadka
DR6 0.00 dB -7.89 dB 3:19 02-Piatek
DR6 0.00 dB -7.12 dB 3:03 03-Smak Ust
DR5 0.00 dB -7.10 dB 3:49 04-Podpalimy Swiat (Radio Edit)
DR5 0.00 dB -6.71 dB 3:44 05-Electricity (Ogien)
DR5 0.00 dB -7.62 dB 3:17 06-Na Zawsze
DR5 0.00 dB -7.46 dB 4:26 07-Na Smyczy
DR6 0.00 dB -7.90 dB 3:44 08-Kazdy Moment
DR5 0.00 dB -7.34 dB 3:22 09-Wdech
DR5 0.00 dB -6.89 dB 3:40 10-Lukrowany Swiat
DR4 0.00 dB -5.81 dB 3:44 11-Pierwszy Krok
DR5 0.00 dB -7.85 dB 3:31 12-Bunt
DR5 0.00 dB -7.23 dB 4:19 13-Iluzja
DR6 0.00 dB -7.80 dB 3:19 14-Only Human
DR4 0.00 dB -6.97 dB 3:28 15-How Do You Like Me Now
Obrazek
Obrazek lub Obrazek
aby pobrać film wystarczy kliknąć w którąś ikonke
następnie
"pobierz za darmo"wpisać kod z obrazka oraz potwierdzić
  
Electra18.10.2017 00:29:46
poziom 5

oczka

Przejdz do góry stronyStrona: 1 / 1    strony: [1]

  << Pierwsza      < Poprzednia      Następna >     Ostatnia >>  

HOME » SOUNDTRUCKI I INNE » LANBERRY - LANBERRY (DELUXE EDITION) (2017) [MP3]

Aby pisac na forum musisz sie zalogować !!!

randki | własny sklep internetowy | promocje | darmowe aliasy | CyberCiekawostki | darmowe forum | sklepy
opinie, testy, oceny | katalog stron | toplsta