NOWE POSTY | NOWE TEMATY | POPULARNE | STAT | RSS | KONTAKT | REJESTRACJA | Login: Hasło: rss dla

HOME » SOUNDTRUCKI I INNE » LOREIN- ZŁAMANIA (2017) [MP3]

Przejdz do dołu stronyStrona: 1 / 1    strony: [1]

Lorein- Złamania (2017) [MP3]

albumy / składanki
  
owsiak79
08.08.2017 14:00:44
poziom najwyższy i najjaśniejszy :-)



Grupa: Użytkownik

Posty: 5566 #2450649
Od: 2015-2-25

Lorein- Złamania (2017) [MP3]


Analyzed: Lorein / Zlamania
--------------------------------------------------------------------------------

DR Peak RMS Duration Track
--------------------------------------------------------------------------------
DR6 0.00 dB -7.73 dB 3:54 01-Fale
DR8 0.00 dB -10.23 dB 4:43 02-Dzwięki Rozstania
DR6 0.00 dB -7.33 dB 4:21 03-Na głos niewypowiedziane
DR7 0.00 dB -7.80 dB 3:09 04-Złamania
DR7 0.00 dB -8.58 dB 3:34 05-Ładny
DR7 0.00 dB -7.86 dB 3:35 06-5 x 5
DR8 0.00 dB -11.19 dB 2:35 07-Liście
DR7 0.00 dB -7.57 dB 4:18 08-Alarmy
DR7 0.00 dB -8.74 dB 3:39 09-Kilka słów, kilka dni
DR6 0.00 dB -7.58 dB 3:20 10-Falconer
DR9 0.00 dB -10.90 dB 3:38 11-Wisła

lub
aby pobrać film wystarczy kliknąć w którąś ikonke
następnie
"pobierz za darmo"wpisać kod z obrazka oraz potwierdzić
  
Electra20.08.2017 09:59:52
poziom 5

oczka

Przejdz do góry stronyStrona: 1 / 1    strony: [1]

  << Pierwsza      < Poprzednia      Następna >     Ostatnia >>  

HOME » SOUNDTRUCKI I INNE » LOREIN- ZŁAMANIA (2017) [MP3]

Aby pisac na forum musisz sie zalogować !!!

randki | własny sklep internetowy | promocje | darmowe aliasy | CyberCiekawostki | darmowe forum | sklepy
opinie, testy, oceny | katalog stron | toplsta