NOWE POSTY | NOWE TEMATY | POPULARNE | STAT | RSS | KONTAKT | REJESTRACJA | Login: Hasło: rss dla

HOME » SOUNDTRUCKI I INNE » MAREK I VACEK - MAREK I VACEK ‎– PRZĄŚNICZKA(ZŁOTA KOLEKCJA) (2002) [MP3]

Przejdz do dołu stronyStrona: 1 / 1    strony: [1]

Marek i Vacek - Marek i Vacek ‎– Prząśniczka(Złota Kolekcja) (2002) [MP3]

albumy / składanki
  
owsiak79
08.08.2017 14:04:03
poziom najwyższy i najjaśniejszy :-)



Grupa: Użytkownik

Posty: 6235 #2450651
Od: 2015-2-25
Obrazek
Marek i Vacek - Marek i Vacek ‎– Prząśniczka(Złota Kolekcja) (2002) [MP3]
Obrazek
Obrazek
Analyzed: Marek i Vacek / Marek i Vacek ?– Prząśniczka(Złota Kolekcja)
--------------------------------------------------------------------------------

DR Peak RMS Duration Track
--------------------------------------------------------------------------------
DR12 0.00 dB -14.37 dB 3:46 01-Mazurka-Frédéric Chopin
DR11 0.00 dB -12.47 dB 2:32 02-Tarantella-Gioacchino Rossini
DR13 -0.03 dB -14.01 dB 3:14 03-Melodia dla Zuzi-Wacław Kisielewski
DR13 0.00 dB -14.27 dB 3:03 04-Kitten on the Keys-Zez Confrey
DR11 -0.08 dB -15.62 dB 3:46 05-Kołysanka z filmu "Rosemary's Baby"-Krzysztof Komeda
DR9 -0.07 dB -11.29 dB 2:16 06-Massachussets-Richard Gibbs
DR9 0.00 dB -11.06 dB 3:58 07-Atlantis: Au Petit Matin-Marek Tomaszewski
DR10 0.00 dB -11.92 dB 4:51 08-Ondraszek
DR11 0.00 dB -12.58 dB 4:04 09-Four Hand Boogie-Marek & Vacek
DR10 0.00 dB -13.73 dB 6:42 10-Bolero-Maurice Ravel
DR11 -0.01 dB -12.46 dB 2:43 11-Follow Me-Wacław Kisielewski
DR9 -0.82 dB -11.30 dB 2:40 12-Prząśniczka-Stanisław Moniuszko
DR11 0.00 dB -12.93 dB 3:15 13-Capriccio in Beat-Niccolo Paganini
DR12 0.00 dB -13.35 dB 2:15 14-Coś drgnęło (Take Off)-Wacław Kisielewski
DR13 -0.06 dB -18.05 dB 2:52 15-Yesterday-Lennon-McCartney
DR12 -0.10 dB -15.77 dB 3:18 16-Uwertura do opery "Wilhelm Tell"-Gioacchino Rossini
DR13 -0.10 dB -16.86 dB 4:01 17-Berceuse-Marek Tomaszewski
DR10 0.00 dB -11.56 dB 3:04 18-Oczy czarne
DR11 0.00 dB -15.09 dB 3:47 19-Pathetique-Pyotr Ilyich Tchaikovsky
DR10 0.00 dB -12.80 dB 3:40 20-Słowik-Aleksander Alabiew
DR9 -0.09 dB -11.24 dB 2:54 21-San Francisco-John Phillips
DR11 0.00 dB -13.16 dB 2:22 22-Maple Leaf Rag-Scott
Obrazek
Obrazek lub Obrazek
aby pobrać film wystarczy kliknąć w którąś ikonke
następnie
"pobierz za darmo"wpisać kod z obrazka oraz potwierdzić
  
Electra15.12.2017 18:49:45
poziom 5

oczka

Przejdz do góry stronyStrona: 1 / 1    strony: [1]

  << Pierwsza      < Poprzednia      Następna >     Ostatnia >>  

HOME » SOUNDTRUCKI I INNE » MAREK I VACEK - MAREK I VACEK ‎– PRZĄŚNICZKA(ZŁOTA KOLEKCJA) (2002) [MP3]

Aby pisac na forum musisz sie zalogować !!!

randki | własny sklep internetowy | promocje | darmowe aliasy | CyberCiekawostki | darmowe forum | sklepy
opinie, testy, oceny | katalog stron | toplsta