NOWE POSTY | NOWE TEMATY | POPULARNE | STAT | RSS | KONTAKT | REJESTRACJA | Login: Hasło: rss dla

HOME » SOUNDTRUCKI I INNE » MARIA POMIANOWSKA - THE VOICE OF SUKA (2016) [MP3]

Przejdz do dołu stronyStrona: 1 / 1    strony: [1]

Maria Pomianowska - The Voice of Suka (2016) [MP3]

albumy / składanki
  
owsiak79
08.08.2017 14:06:41
poziom najwyższy i najjaśniejszy :-)



Grupa: Użytkownik

Posty: 6241 #2450654
Od: 2015-2-25
Obrazek
Maria Pomianowska - The Voice of Suka (2016) [MP3]
Obrazek
Obrazek
Analyzed: Maria Pomianowska / The Voice of Suka
--------------------------------------------------------------------------------

DR Peak RMS Duration Track
--------------------------------------------------------------------------------
DR10 -0.28 dB -12.86 dB 5:19 01-Step
DR9 -0.05 dB -12.45 dB 4:51 02-Wind
DR9 -0.31 dB -12.05 dB 3:02 03-Rainbow
DR9 -0.07 dB -10.34 dB 5:21 04-Ocean
DR9 -0.93 dB -14.15 dB 5:38 05-Valley
DR10 -0.08 dB -11.35 dB 4:45 06-Island
DR9 -0.48 dB -14.48 dB 4:27 07-Fiord
DR7 0.00 dB -8.94 dB 4:01 08-Forest
DR9 -2.47 dB -14.98 dB 2:45 09-River
DR7 0.00 dB -11.09 dB 5:47 10-Desert
DR12 -0.02 dB -14.45 dB 9:59 11-Monsoon
DR7 0.00 dB -10.66 dB 3:48 12-Służyłem ja tobie
Obrazek
Obrazek lub Obrazek
aby pobrać film wystarczy kliknąć w którąś ikonke
następnie
"pobierz za darmo"wpisać kod z obrazka oraz potwierdzić
  
Electra17.12.2017 15:02:58
poziom 5

oczka

Przejdz do góry stronyStrona: 1 / 1    strony: [1]

  << Pierwsza      < Poprzednia      Następna >     Ostatnia >>  

HOME » SOUNDTRUCKI I INNE » MARIA POMIANOWSKA - THE VOICE OF SUKA (2016) [MP3]

Aby pisac na forum musisz sie zalogować !!!

randki | własny sklep internetowy | promocje | darmowe aliasy | CyberCiekawostki | darmowe forum | sklepy
opinie, testy, oceny | katalog stron | toplsta