NOWE POSTY | NOWE TEMATY | POPULARNE | STAT | RSS | KONTAKT | REJESTRACJA | Login: Hasło: rss dla

HOME » SOUNDTRUCKI I INNE » PATRYCJA MARKOWSKA - KRÓTKA PŁYTA O MIŁOŚCI (2017) [MP3]

Przejdz do dołu stronyStrona: 1 / 1    strony: [1]

Patrycja Markowska - Krótka płyta o miłości (2017) [MP3]

albumy / składanki
  
owsiak79
08.08.2017 14:09:00
poziom najwyższy i najjaśniejszy :-)



Grupa: Użytkownik

Posty: 5862 #2450655
Od: 2015-2-25
Obrazek
Patrycja Markowska - Krótka płyta o miłości (2017) [MP3]
Obrazek
Obrazek
Analyzed: Patrycja Markowska (feat. Grzegorz Skawiński) / Krótka płyta o miłości (1)
Patrycja Markowska (feat. Leszek Możdżer) / Krótka płyta o miłości (2)
Patrycja Markowska (feat. Marek Dyjak) / Krótka płyta o miłości (3)
Patrycja Markowska (feat. Pectus) / Krótka płyta o miłości (4)
Patrycja Markowska (feat. Ray Wilson) / Krótka płyta o miłości (5)
Patrycja Markowska / Krótka płyta o miłości (6-13)
--------------------------------------------------------------------------------

DR Peak RMS Duration Track
--------------------------------------------------------------------------------
DR5 -0.92 dB -7.37 dB 3:32 02-Nie Potrzeba Mi Nic Więcej
DR6 -0.91 dB -11.75 dB 4:45 11-Wyznanie
DR6 -0.90 dB -8.33 dB 3:30 06-Byś Spojrzał Na Mnie
DR6 -0.93 dB -9.79 dB 3:44 13-Między Słowami
DR8 -1.00 dB -11.29 dB 4:47 08-Bezustannie
DR5 -0.95 dB -7.64 dB 3:32 01-Adieu Monsieur
DR6 -1.01 dB -8.32 dB 3:25 03-Lalka
DR6 -0.84 dB -8.06 dB 3:40 04-Kochaina
DR5 -0.77 dB -8.06 dB 4:04 05-Czy Przyjdzie Wiosna
DR6 -1.00 dB -9.41 dB 3:08 07-Leć
DR5 -1.04 dB -8.88 dB 3:30 09-Za Nas Dwoje
DR6 -0.92 dB -8.06 dB 2:59 10-Zanim
DR6 -1.00 dB -7.85 dB 3:29 12-Nawigacja
Obrazek
Obrazek lub Obrazek
aby pobrać film wystarczy kliknąć w którąś ikonke
następnie
"pobierz za darmo"wpisać kod z obrazka oraz potwierdzić
  
Electra17.10.2017 14:54:25
poziom 5

oczka

Przejdz do góry stronyStrona: 1 / 1    strony: [1]

  << Pierwsza      < Poprzednia      Następna >     Ostatnia >>  

HOME » SOUNDTRUCKI I INNE » PATRYCJA MARKOWSKA - KRÓTKA PŁYTA O MIŁOŚCI (2017) [MP3]

Aby pisac na forum musisz sie zalogować !!!

randki | własny sklep internetowy | promocje | darmowe aliasy | CyberCiekawostki | darmowe forum | sklepy
opinie, testy, oceny | katalog stron | toplsta