NOWE POSTY | NOWE TEMATY | POPULARNE | STAT | RSS | KONTAKT | REJESTRACJA | Login: Hasło: rss dla

HOME » SOUNDTRUCKI I INNE » PIEKNI I MLODZI - TAK JUŻ BEZ CIEBIE (22017) [FLAC]

Przejdz do dołu stronyStrona: 1 / 1    strony: [1]

Piekni I Mlodzi - Tak Już Bez Ciebie (22017) [FLAC]

albumy / składanki
  
owsiak79
08.08.2017 16:12:47
poziom najwyższy i najjaśniejszy :-)



Grupa: Użytkownik

Posty: 5862 #2450682
Od: 2015-2-25
Obrazek
Piekni I Mlodzi - Tak Już Bez Ciebie (22017) [FLAC]
Obrazek
Obrazek
Analyzed: Piękni I Młodzi / Tak Już Bez Ciebie
--------------------------------------------------------------------------------

DR Peak RMS Duration Track
--------------------------------------------------------------------------------
DR7 0.00 dB -8.41 dB 4:03 01-Tak Już Bez Ciebie
DR6 -0.07 dB -7.05 dB 3:41 02-Jedno Słowo
DR7 0.00 dB -7.81 dB 3:32 03-Zastanawiam Się
DR8 0.00 dB -10.18 dB 2:50 04-Na Serca Dnie
DR6 -0.07 dB -7.06 dB 3:47 05-Ona Jest Taka Cudowna
DR6 -0.07 dB -6.90 dB 3:52 06-Chciałabym Spać Z Tobą
DR6 0.00 dB -7.70 dB 3:48 07-Boys Boys Boys
DR6 -0.07 dB -7.10 dB 3:40 08-Wyśmienicie
DR8 -0.30 dB -9.02 dB 3:49 09-Niewiara
DR7 0.00 dB -7.92 dB 4:47 10-To Nasze Święta
DR4 0.00 dB -4.90 dB 3:34 11-Tak Już Bez Ciebie (Dj Sequence Remix)
DR6 0.00 dB -7.21 dB 4:32 12-Tak Już Bez Ciebie (Tal3s Deep Remix)
DR13 0.00 dB -14.48 dB 3:50 13-Jedno Słowo (Levelan Remix)
DR5 0.00 dB -6.28 dB 5:24 14-Wyśmienicie (Noizz Bros Remix)
DR7 0.00 dB -7.92 dB 4:01 15-Tak Już Bez Ciebie (Karaoke Version)
Obrazek
Obrazek lub Obrazek
aby pobrać film wystarczy kliknąć w którąś ikonke
następnie
"pobierz za darmo"wpisać kod z obrazka oraz potwierdzić
  
Electra18.10.2017 00:29:38
poziom 5

oczka

Przejdz do góry stronyStrona: 1 / 1    strony: [1]

  << Pierwsza      < Poprzednia      Następna >     Ostatnia >>  

HOME » SOUNDTRUCKI I INNE » PIEKNI I MLODZI - TAK JUŻ BEZ CIEBIE (22017) [FLAC]

Aby pisac na forum musisz sie zalogować !!!

randki | własny sklep internetowy | promocje | darmowe aliasy | CyberCiekawostki | darmowe forum | sklepy
opinie, testy, oceny | katalog stron | toplsta