NOWE POSTY | NOWE TEMATY | POPULARNE | STAT | RSS | KONTAKT | REJESTRACJA | Login: Hasło: rss dla

HOME » SOUNDTRUCKI I INNE » PIOTR BEJNAR - ALBUM (2017) [MP3]

Przejdz do dołu stronyStrona: 1 / 1    strony: [1]

Piotr Bejnar - Album (2017) [MP3]

albumy / składanki
  
owsiak79
08.08.2017 16:14:49
poziom najwyższy i najjaśniejszy :-)



Grupa: Użytkownik

Posty: 6241 #2450684
Od: 2015-2-25
Obrazek
Piotr Bejnar - Album (2017) [MP3]
Obrazek
Obrazek
Analyzed: Piotr Bejnar / Album
--------------------------------------------------------------------------------

DR Peak RMS Duration Track
--------------------------------------------------------------------------------
DR10 0.00 dB -13.86 dB 1:35 01-Torba Dja
DR5 -0.28 dB -7.54 dB 4:01 02-Tearful Smile (feat. Weronika Dziedzic)
DR7 -0.43 dB -9.40 dB 3:37 03-Jellyfish (feat. Baasch)
DR4 0.00 dB -5.82 dB 5:11 04-Nie ma Mateusza
DR6 -0.01 dB -9.28 dB 3:29 05-Pachniesz (feat. Weronika Dziedzic)
DR4 -0.90 dB -7.24 dB 4:46 06-Kobietki (feat. Krystyna Czubówna)
DR5 -0.33 dB -8.52 dB 5:07 07-Bagieta (feat. Kasp)
DR7 -0.04 dB -10.27 dB 5:37 08-Your Hope is Over There
DR6 -0.06 dB -7.03 dB 4:33 09-Sacrifice
DR5 0.00 dB -8.52 dB 5:01 10-Oniegin
DR6 0.00 dB -8.24 dB 4:23 11-Mzesumzira
DR4 -1.07 dB -8.98 dB 3:20 12-Twelve Kisses for Goodbye (feat. Angelina Nartowska)
Obrazek
Obrazek lub Obrazek
aby pobrać film wystarczy kliknąć w którąś ikonke
następnie
"pobierz za darmo"wpisać kod z obrazka oraz potwierdzić
  
Electra17.12.2017 14:49:27
poziom 5

oczka

Przejdz do góry stronyStrona: 1 / 1    strony: [1]

  << Pierwsza      < Poprzednia      Następna >     Ostatnia >>  

HOME » SOUNDTRUCKI I INNE » PIOTR BEJNAR - ALBUM (2017) [MP3]

Aby pisac na forum musisz sie zalogować !!!

randki | własny sklep internetowy | promocje | darmowe aliasy | CyberCiekawostki | darmowe forum | sklepy
opinie, testy, oceny | katalog stron | toplsta