NOWE POSTY | NOWE TEMATY | POPULARNE | STAT | RSS | KONTAKT | REJESTRACJA | Login: Hasło: rss dla

HOME » SOUNDTRUCKI I INNE » POPEK & SOBOTA & MATHEO - TRZECH KRÓLI (2017) [MP3]

Przejdz do dołu stronyStrona: 1 / 1    strony: [1]

Popek & Sobota & Matheo - Trzech Króli (2017) [MP3]

albumy / składanki
  
owsiak79
08.08.2017 16:16:57
poziom najwyższy i najjaśniejszy :-)



Grupa: Użytkownik

Posty: 6241 #2450685
Od: 2015-2-25
Obrazek
Popek & Sobota & Matheo - Trzech Króli (2017) [MP3]
Obrazek
Obrazek
Analyzed: Popek & Sobota & Matheo / Trzech kroli
--------------------------------------------------------------------------------

DR Peak RMS Duration Track
--------------------------------------------------------------------------------
DR6 0.00 dB -6.83 dB 2:56 01-Co ode mnie chcesz?
DR5 0.00 dB -6.97 dB 4:30 02-Tron pasuje mi
DR6 0.00 dB -8.05 dB 3:53 03-Oda do prożności
DR6 0.00 dB -7.50 dB 2:47 04-Dom
DR6 0.00 dB -7.42 dB 3:18 05-Czego sercu nie żal
DR7 0.00 dB -7.93 dB 4:42 06-Na rozstaju dróg
DR5 0.00 dB -7.16 dB 3:35 07-Z biegiem czasu
DR6 0.00 dB -7.14 dB 3:31 08-Bajka
DR7 0.00 dB -8.22 dB 3:53 09-Mój świat
DR6 0.00 dB -7.72 dB 4:17 10-Prawda czy falsz
DR6 0.00 dB -7.74 dB 2:57 11-To co moje jest
DR5 0.00 dB -6.64 dB 3:08 12-Nigdy nie mów nigdy
DR6 0.00 dB -7.14 dB 2:55 13-Jeszcze jeden raz (Bonus Track)
DR9 0.00 dB -10.27 dB 4:22 14-Nigdy nie mów nigdy (P.A.F.F Remix)
DR8 0.00 dB -9.25 dB 3:42 15-Bajka (Melo.Kids Remix)
DR5 0.00 dB -6.99 dB 2:57 16-To co moje jest (SHIMZ Remix)
DR6 0.00 dB -6.72 dB 3:35 17-Z biegiem czasu (Doych Remix)
Obrazek
Obrazek lub Obrazek
aby pobrać film wystarczy kliknąć w którąś ikonke
następnie
"pobierz za darmo"wpisać kod z obrazka oraz potwierdzić
  
Electra17.12.2017 14:53:57
poziom 5

oczka

Przejdz do góry stronyStrona: 1 / 1    strony: [1]

  << Pierwsza      < Poprzednia      Następna >     Ostatnia >>  

HOME » SOUNDTRUCKI I INNE » POPEK & SOBOTA & MATHEO - TRZECH KRÓLI (2017) [MP3]

Aby pisac na forum musisz sie zalogować !!!

randki | własny sklep internetowy | promocje | darmowe aliasy | CyberCiekawostki | darmowe forum | sklepy
opinie, testy, oceny | katalog stron | toplsta