NOWE POSTY | NOWE TEMATY | POPULARNE | STAT | RSS | KONTAKT | REJESTRACJA | Login: Hasło: rss dla

HOME » SOUNDTRUCKI I INNE » RENATA PRZEMYK - BOOGIE STREET (2017) [MP3]

Przejdz do dołu stronyStrona: 1 / 1    strony: [1]

Renata Przemyk - Boogie Street (2017) [MP3]

albumy / składanki
  
owsiak79
08.08.2017 16:18:56
poziom najwyższy i najjaśniejszy :-)



Grupa: Użytkownik

Posty: 5566 #2450686
Od: 2015-2-25

Renata Przemyk - Boogie Street (2017) [MP3]


Analyzed: Renata Przemyk / Boogie Street. Renata Przemyk spiewa piosenki Leonarda Cohena (1-12)
Wojciech Leonowicz / Boogie Street. Renata Przemyk spiewa piosenki Leonarda Cohena (13)
--------------------------------------------------------------------------------

DR Peak RMS Duration Track
--------------------------------------------------------------------------------
DR8 -0.02 dB -11.79 dB 5:15 01-Boogie street
DR8 0.00 dB -10.61 dB 3:24 02-Oto jest / Here it is
DR8 0.00 dB -10.26 dB 4:55 03-Dość kochałeś już / You have loved enough
DR10 -0.14 dB -12.25 dB 4:27 04-Na pocałunków dnie / A thousand kisses deep
DR7 0.00 dB -9.02 dB 4:44 05-Dla ciebie tak / There for you
DR10 -0.13 dB -13.05 dB 4:15 06-Ponad mrokiem rzek / By the rivers dark
DR9 -0.04 dB -10.85 dB 3:28 07-Listy / The letters
DR7 0.00 dB -10.08 dB 5:05 08-Odchodzi Aleksandra / Alexandra leaving
DR7 0.00 dB -8.80 dB 2:00 09-Słowik / Nightingale
DR7 0.00 dB -9.71 dB 4:32 10-Sama milość / Love itself
DR9 -0.15 dB -11.96 dB 3:49 12-Wiara / The faith
DR8 0.00 dB -9.58 dB 5:15 13-Boogie street (Repryza)
DR8 -0.01 dB -10.25 dB 2:43 11-Za sprawą kilku piosenek& / Because of&

lub
aby pobrać film wystarczy kliknąć w którąś ikonke
następnie
"pobierz za darmo"wpisać kod z obrazka oraz potwierdzić
  
Electra20.08.2017 10:00:55
poziom 5

oczka

Przejdz do góry stronyStrona: 1 / 1    strony: [1]

  << Pierwsza      < Poprzednia      Następna >     Ostatnia >>  

HOME » SOUNDTRUCKI I INNE » RENATA PRZEMYK - BOOGIE STREET (2017) [MP3]

Aby pisac na forum musisz sie zalogować !!!

randki | własny sklep internetowy | promocje | darmowe aliasy | CyberCiekawostki | darmowe forum | sklepy
opinie, testy, oceny | katalog stron | toplsta