NOWE POSTY | NOWE TEMATY | POPULARNE | STAT | RSS | KONTAKT | REJESTRACJA | Login: Hasło: rss dla

HOME » SOUNDTRUCKI I INNE » SARSA - PIÓROPUSZE (2017) [FLAC]

Przejdz do dołu stronyStrona: 1 / 1    strony: [1]

Sarsa - Pióropusze (2017) [FLAC]

albumy / składanki
  
owsiak79
08.08.2017 17:28:31
poziom najwyższy i najjaśniejszy :-)



Grupa: Użytkownik

Posty: 5566 #2450702
Od: 2015-2-25

Sarsa - Pióropusze (2017) [FLAC]


Analyzed: Sarsa / Pióropusze
--------------------------------------------------------------------------------

DR Peak RMS Duration Track
--------------------------------------------------------------------------------
DR6 0.00 dB -8.34 dB 3:07 01-Bronię się
DR4 0.00 dB -5.60 dB 2:56 02-Volta
DR5 0.00 dB -6.87 dB 4:15 03-Motyle i ćmy
DR5 0.00 dB -6.79 dB 3:17 04-Ty niebo
DR4 0.00 dB -6.18 dB 2:32 05-Ucieka
DR4 0.00 dB -5.56 dB 2:43 06-RAH Bronx
DR4 0.00 dB -6.73 dB 3:21 07-Nie tańcz (Feat. VNM)
DR5 -0.15 dB -7.29 dB 4:08 08-Pióropusze
DR8 -0.09 dB -10.77 dB 4:24 09-Oh say
DR5 -0.09 dB -5.84 dB 3:48 10-Hey you
DR4 0.00 dB -6.96 dB 3:01 11-Egoizm
DR4 0.00 dB -5.72 dB 2:21 12-Furia outro
DR4 0.00 dB -8.73 dB 3:30 13-Dust
DR4 0.00 dB -6.36 dB 4:15 14-Photo
DR5 -0.09 dB -7.01 dB 3:57 15-Dziele

lub
aby pobrać film wystarczy kliknąć w którąś ikonke
następnie
"pobierz za darmo"wpisać kod z obrazka oraz potwierdzić
  
Electra20.08.2017 17:36:36
poziom 5

oczka

Przejdz do góry stronyStrona: 1 / 1    strony: [1]

  << Pierwsza      < Poprzednia      Następna >     Ostatnia >>  

HOME » SOUNDTRUCKI I INNE » SARSA - PIÓROPUSZE (2017) [FLAC]

Aby pisac na forum musisz sie zalogować !!!

randki | własny sklep internetowy | promocje | darmowe aliasy | CyberCiekawostki | darmowe forum | sklepy
opinie, testy, oceny | katalog stron | toplsta