NOWE POSTY | NOWE TEMATY | POPULARNE | STAT | RSS | KONTAKT | REJESTRACJA | Login: Hasło: rss dla

HOME » SOUNDTRUCKI I INNE » SŁAWA PRZYBYLSKA - PAMIĘTASZ (2017) [MP3]

Przejdz do dołu stronyStrona: 1 / 1    strony: [1]

Sława Przybylska - Pamiętasz (2017) [MP3]

albumy / składanki
  
owsiak79
08.08.2017 17:31:39
poziom najwyższy i najjaśniejszy :-)



Grupa: Użytkownik

Posty: 5566 #2450704
Od: 2015-2-25

Sława Przybylska - Pamiętasz (2017) [MP3]


Analyzed: Sława Przybylska / Pamiętasz
--------------------------------------------------------------------------------

DR Peak RMS Duration Track
--------------------------------------------------------------------------------
DR9 -0.91 dB -11.48 dB 3:52 01-Siedem dobrych lat
DR10 -1.00 dB -13.49 dB 3:06 02-Poszłabym ja na kraj świata
DR10 -1.01 dB -13.38 dB 3:12 03-W Jaworkach
DR9 -0.99 dB -12.70 dB 2:27 04-Słowik
DR10 -0.95 dB -12.27 dB 3:07 05-Czy to bajka
DR10 -0.93 dB -12.62 dB 3:59 06-To wszystko z nudów
DR10 -0.99 dB -12.51 dB 3:51 07-Tango Notturno
DR10 -0.98 dB -13.72 dB 6:11 08-La Boheme
DR10 -1.02 dB -13.53 dB 2:45 09-Tbiliso
DR9 -0.97 dB -12.46 dB 2:39 10-A jak poszedł król na wojnę
DR9 -1.01 dB -11.94 dB 2:45 11-Nie zabierajcie chłopców na wojnę
DR9 -1.02 dB -13.42 dB 3:35 12-Gdzie są kwiaty z tamtych lat
DR9 -0.99 dB -12.57 dB 3:23 13-Jeruzalem (psalm 137)
DR9 -0.90 dB -12.84 dB 5:19 14-Rebeka
DR9 -1.02 dB -11.96 dB 3:10 15-Rebeka tańczy tango
DR10 -0.97 dB -12.57 dB 3:30 16-Przyjechałam powtórzyć jesień

lub
aby pobrać film wystarczy kliknąć w którąś ikonke
następnie
"pobierz za darmo"wpisać kod z obrazka oraz potwierdzić
  
Electra20.08.2017 17:36:09
poziom 5

oczka

Przejdz do góry stronyStrona: 1 / 1    strony: [1]

  << Pierwsza      < Poprzednia      Następna >     Ostatnia >>  

HOME » SOUNDTRUCKI I INNE » SŁAWA PRZYBYLSKA - PAMIĘTASZ (2017) [MP3]

Aby pisac na forum musisz sie zalogować !!!

randki | własny sklep internetowy | promocje | darmowe aliasy | CyberCiekawostki | darmowe forum | sklepy
opinie, testy, oceny | katalog stron | toplsta