NOWE POSTY | NOWE TEMATY | POPULARNE | STAT | RSS | KONTAKT | REJESTRACJA | Login: Hasło: rss dla

HOME » SOUNDTRUCKI I INNE » STRACHY NA LACHY - AUTOR (2007) [MP3]

Przejdz do dołu stronyStrona: 1 / 1    strony: [1]

Strachy na Lachy - Autor (2007) [MP3]

albumy / składanki
  
owsiak79
08.08.2017 17:33:35
poziom najwyższy i najjaśniejszy :-)



Grupa: Użytkownik

Posty: 6241 #2450705
Od: 2015-2-25
Obrazek
Strachy na Lachy - Autor (2007) [MP3]
Obrazek
Obrazek
Analyzed: Strachy na Lachy / Autor
--------------------------------------------------------------------------------

DR Peak RMS Duration Track
--------------------------------------------------------------------------------
DR6 0.00 dB -7.06 dB 3:25 01-Siedzimy Tu Przez Nieporozumienie
DR7 0.00 dB -8.36 dB 3:45 02-Ballada Dla Obywatela Miasteczka P
DR7 0.00 dB -7.73 dB 2:03 03-Czerwony Autobus
DR7 0.00 dB -7.45 dB 3:28 04-Przedszkole
DR7 0.00 dB -8.38 dB 3:37 05-Walka Jakuba Z Aniolem
DR6 0.00 dB -7.86 dB 4:53 06-Mury
DR6 0.00 dB -7.03 dB 4:30 07-Szklana Góra
DR7 0.00 dB -8.39 dB 6:39 08-Encore Jeszcze Raz
DR6 0.00 dB -7.69 dB 5:50 09-Kazimierz Wierzyński
DR7 0.00 dB -7.83 dB 4:02 10-Szklana Góra (Wer. Wolny Tybet)
DR7 0.00 dB -8.86 dB 4:51 11-Kazimierz Wierzyński (Remix Trzeci)
DR8 0.00 dB -8.55 dB 1:58 12-Czerwony Autobus (Remix Drugi)
Obrazek
Obrazek lub Obrazek
aby pobrać film wystarczy kliknąć w którąś ikonke
następnie
"pobierz za darmo"wpisać kod z obrazka oraz potwierdzić
  
Electra17.12.2017 15:02:45
poziom 5

oczka

Przejdz do góry stronyStrona: 1 / 1    strony: [1]

  << Pierwsza      < Poprzednia      Następna >     Ostatnia >>  

HOME » SOUNDTRUCKI I INNE » STRACHY NA LACHY - AUTOR (2007) [MP3]

Aby pisac na forum musisz sie zalogować !!!

randki | własny sklep internetowy | promocje | darmowe aliasy | CyberCiekawostki | darmowe forum | sklepy
opinie, testy, oceny | katalog stron | toplsta