NOWE POSTY | NOWE TEMATY | POPULARNE | STAT | RSS | KONTAKT | REJESTRACJA | Login: Hasło: rss dla

HOME » SOUNDTRUCKI I INNE » TSA - CZERWONY (1982) [FLAC]

Przejdz do dołu stronyStrona: 1 / 1    strony: [1]

TSA - Czerwony (1982) [FLAC]

albumy / składanki
  
owsiak79
08.08.2017 19:05:15
poziom najwyższy i najjaśniejszy :-)



Grupa: Użytkownik

Posty: 6241 #2450722
Od: 2015-2-25
Obrazek
TSA - Czerwony (1982) [FLAC]
Obrazek
Obrazek
Analyzed: TSA / Czerwony
--------------------------------------------------------------------------------

DR Peak RMS Duration Track
--------------------------------------------------------------------------------
DR8 -0.20 dB -9.23 dB 5:17 01-Wysokie Sfery
DR7 -0.20 dB -8.37 dB 3:45 02-Ludzie Jak Dynie
DR7 -0.20 dB -8.41 dB 3:04 03-Nocny Sabat
DR8 -0.20 dB -10.95 dB 5:11 04-Trzy Zapałki
DR7 -0.20 dB -8.39 dB 4:16 05-Na Co Cię Stać?
DR8 -0.20 dB -9.17 dB 4:24 06-Jeden Kroczek
DR8 -0.20 dB -9.88 dB 3:41 07-Twoje Sumienie
DR7 -0.20 dB -9.50 dB 5:00 08-Bez Podtekstów
DR7 -0.20 dB -8.60 dB 3:56 09-Mass Media
DR6 -0.20 dB -8.22 dB 3:15 10-Wpadka
Obrazek
Obrazek lub Obrazek
aby pobrać film wystarczy kliknąć w którąś ikonke
następnie
"pobierz za darmo"wpisać kod z obrazka oraz potwierdzić
  
Electra17.12.2017 14:51:36
poziom 5

oczka

Przejdz do góry stronyStrona: 1 / 1    strony: [1]

  << Pierwsza      < Poprzednia      Następna >     Ostatnia >>  

HOME » SOUNDTRUCKI I INNE » TSA - CZERWONY (1982) [FLAC]

Aby pisac na forum musisz sie zalogować !!!

randki | własny sklep internetowy | promocje | darmowe aliasy | CyberCiekawostki | darmowe forum | sklepy
opinie, testy, oceny | katalog stron | toplsta