NOWE POSTY | NOWE TEMATY | POPULARNE | STAT | RSS | KONTAKT | REJESTRACJA | Login: Hasło: rss dla

HOME » SERIALE » VIOLETTA SEZON 1 (2012) | POLSKI DUBBING

Przejdz do dołu stronyStrona: 1 / 1    strony: [1]

Violetta Sezon 1 (2012) | POLSKI DUBBING

  
administrator
07.12.2014 16:20:54
moc !!!
wydawało się ze wiecej już sie nie da ale jednak !



Grupa: Administrator 

Lokalizacja:: Warszawa

Posty: 13324 #1997949
Od: 2013-4-24
Violetta Sezon 01 (2012) | POLSKI DUBBING

Obrazek


Obrazek

    administrator pisze:

    General
    Complete name :
    Violetta.S01E25.PL.DVBRip.DivX.rmvb
    Format : RealMedia
    File size : 260 MiB
    Duration : 44mn 2s
    Overall bit rate : 796 Kbps

    Video
    ID : 1
    Format : RealVideo 4
    Codec ID : RV40
    Codec ID/Info : Based on AVC (H.264), Real Player 9
    Duration : 44mn 2s
    Bit rate : 732 Kbps
    Width : 1 024 pixels
    Height : 576 pixels
    Display aspect ratio : 16:9
    Frame rate : 25.000 fps
    Bits/(Pixel*Frame) : 0.050
    Stream size : 231 MiB (89%)

    Audio
    ID : 0
    Format : Cooker
    Codec ID : cook
    Codec ID/Info : Based on G.722.1, Real Player 6
    Duration : 44mn 3s
    Bit rate : 64.1 Kbps
    Channel(s) : 2 channels
    Sampling rate : 44.1 KHz
    Bit depth : 16 bits
    Stream size : 20.2 MiB (8%)



    Argentyński serial telewizyjny stworzony przez Pol-ka Producciones we współpracy z oddziałami Disney Channel (m.in. Ameryka Łacińska, Europa, Azja i Afryka), którego premiera odbyła się 14 maja 2012 roku.


Obrazek

Obrazek


Catshare.net



HASŁO:brak!
_________________



REGULAMIN|Najnowsze FILMY|Współpraca
LINK NIEAKTYWNY?- POST DO MODERACJI

Najlepszy darmowy Torrent, pliki PL i ENG
  
Electra21.10.2018 18:15:45
poziom 5

oczka

Przejdz do góry stronyStrona: 1 / 1    strony: [1]

  << Pierwsza      < Poprzednia      Następna >     Ostatnia >>  

HOME » SERIALE » VIOLETTA SEZON 1 (2012) | POLSKI DUBBING

Aby pisac na forum musisz sie zalogować !!!

randki | własny sklep internetowy | promocje | CyberCiekawostki | darmowe forum | sklepy
opinie, testy, oceny | katalog stron | toplsta